使用帮助 求片留言 欢迎光临终级电影网,如果你觉得本站不错,请行举手之劳推荐给你的朋友或在博客/空间里做bt天堂电影网的链接!!终级电影网手机版
421052383f152c80b20a79e8427c1bb3

首页 > 剧情片 > 但丁密码

2017-01-10 19:22:50

但丁密码
  • 主 演 :汤姆·汉克斯 Tom Hanks 费莉西蒂·琼斯 Felicity Jones 本·福斯特 Ben Foster
  • 0
    人表态
    一天两次
  • 超赞
    0
  • 不错
    0
  • 一般
    0
  • 失望
    0
  • 真烂
    0
  • 路过
    0
【电影下载小贴士】:支持迅雷影音和QQ旋风【在线观看】,请事先打开迅雷,复制下载链接地址即可,一定要用最新迅雷下载.
BT种子下载

但丁密码剧情介绍 (如果下载资源缺失,请下面评论区留言反馈!)

◎译  名 但丁密码/地狱(台)/地狱解码(港)
◎片  名 Inferno
◎年  代 2016
◎国  家 美国/日本/土耳其/匈牙利
◎类  别 悬疑/惊悚
◎语  言 英语
◎上映日期 2016-10-28(中国大陆/美国)
◎IMDb评分 6.5/10 from 13,592 users
◎IMDb链接 http://www.imdb.com/title/tt3062096/
◎豆瓣评分 6.5/10 from 422 users
◎豆瓣链接 https://movie.douban.com/subject/24860318/
◎片  长 122分钟
◎导  演 朗·霍华德 Ron Howard
◎主  演 汤姆·汉克斯 Tom Hanks
      费莉西蒂·琼斯 Felicity Jones
      本·福斯特 Ben Foster
      奥玛·赛 Omar Sy
      伊尔凡·可汗 Irrfan Khan
      西德斯·巴比特·科努德森 Sidse Babett Knudsen
      Ana Ularu
      Wolfgang Stegemann
      Attila árpa
      Jon Donahue

◎简  介

  《但丁密码》改编自丹·布朗2013年的小说《地狱》,讲述了符号学教授罗伯特·兰登(汤姆·汉克斯 Tom Hanks 饰)在意大利一所医院中醒来,发觉自己头部受到重创且失忆,同时还受到多组人马追杀,女医生西恩娜·布鲁克斯(费莉西蒂·琼斯 Felicity Jones 饰)帮助他逃出医院,寻回记忆,在这一过程中发现隐藏在但丁、米开朗琪罗等大师作品里的一个惊天阴谋,有极端邪恶的科学家妄图利用病毒把地球变成但丁《神曲》中描绘的地狱。



http://www.imdb.com/title/tt3062096/


When Robert Langdon wakes up in an Italian hospital with amnesia, he teams up with Dr. Sienna Brooks, and together they must race across Europe against the clock to foil a deadly global plot.

Director: Ron Howard
Writers: Dan Brown (based on the novel by), David Koepp (screenplay)
Stars: Tom Hanks, Felicity Jones, Irrfan Khan
Genres: Action | Adventure | Crime | Drama | Mystery | Thriller
Country: USA | Japan | Turkey | Hungary
Language: English


::iNFORMATION::
Language: English
Source: SPA

Format : Matroska
File size : 1.44 GiB
Duration : 1 h 54 min
Overall bit rate mode : Variable
Overall bit rate : 1 803 kb/s

Video
ID : 1
Format : AVC
Format/Info : Advanced Video Codec
Format profile : High@L4.2
Format settings, CABAC : Yes
Format settings, ReFrames : 4 frames
Codec ID : V_MPEG4/ISO/AVC
Duration : 1 h 54 min
Bit rate mode : Variable
Bit rate : 1 609 kb/s
Maximum bit rate : 62.5 Mb/s
Width : 720 pixels
Height : 396 pixels
Display aspect ratio : 16:9
Frame rate mode : Constant
Frame rate : 29.970 (30000/1001) FPS
Color space : YUV
Chroma subsampling : 4:2:0
Bit depth : 8 bits
Scan type : Progressive
Bits/(Pixel*Frame) : 0.188
Stream size : 1.29 GiB (89%)
Default : Yes
Forced : No
Color range : Full
Color primaries : BT.709
Transfer characteristics : BT.709
Matrix coefficients : BT.709

Audio
ID : 2
Format : MPEG Audio
Format version : Version 1
Format profile : Layer 3
Codec ID : A_MPEG/L3
Codec ID/Hint : MP3
Duration : 1 h 54 min
Bit rate mode : Constant
Bit rate : 192 kb/s
Channel(s) : 2 channels
Sampling rate : 44.1 kHz
Frame rate : 38.281 FPS (1152 spf)
Compression mode : Lossy
Delay relative to video : 5 ms
Stream size : 157 MiB (11%)
Writing library : LAME3.99.5
Default : Yes
Forced : No
终极电影网提供但丁密码BD/HD/720p/1080P高清完整版等多种版本,可选择迅雷/ed2k/磁力线/magnet/bt种子/torrent/百度云进行下载,如果你喜欢该影片,请购买正版影片。
喜欢这部电影的人也喜欢 · · · · · ·

但丁密码迅雷电影下载帮助

请花上几分钟看看但丁密码迅雷下载说明

1、下载BT天堂影片需要安装迅雷软件, 下载最新版迅雷

2、可以点击单集影片名称下载,单击影片名称后,会弹出迅雷下载窗口.

3、也可以勾选影片名前的方框或者勾选全选对多部影片下载

4、由于浏览器兼容性问题,BT天堂电影网所有电影、电视剧等迅雷下载资源需要先将浏览器设置为兼容模式才能下载

5、终极电影网手机站下载,由于手机功能的差异,请长按你要下载的资源,会弹出几个选项,你选择《复制下载链接》,打开手机迅雷,即可提示下载
欣赏电影是种高雅的生活态度但丁密码的评论
小贴士:

1. 类似“顶”、“沙发”之类没有营养的文字,对勤劳贡献的楼主来说是令人沮丧的反馈信息。

2. 提问之前请再仔细看一遍楼主的说明,或许是您遗漏了。

3. 勿催片。请相信楼主对分享是富有激情的,如果确有更新版本,您一定能搜索到。

4. 请勿到处挖坑绊人、招贴广告。即占空间让人厌烦,又没人会搭理,于人于己都无利。

您写下的影评将让其他网友受益,结交同好,分享,共赢。

友情提示:下载本站资源时,请事先装好并打开迅雷等下下载工具,点击即可,如遇到失效的链接,请留言反馈,如用新浪微博登陆,